The World Of Download

benvenuti nel mio forum vi divertirete un casino!!.
registratevi x entrare nel piu entusiasmante forum e x accedere a un sacco di belle categorie.!!
qua troverete tt cio ke cercate"!!!!!!!!!!!!!!!!

Paul Motian / Chris Potter / Jason Moran - Lost in a Dream (2010) EAC - FLAC - LOG

Vedere l'argomento precedente Vedere l'argomento seguente Andare in basso

Paul Motian / Chris Potter / Jason Moran - Lost in a Dream (2010) EAC - FLAC - LOG

Messaggio Da *FARFIX* il Gio Giu 24, 2010 10:20 am

[Devi essere iscritto e connesso per vedere questa immagine] [Devi essere iscritto e connesso per vedere questa immagine]





Artist: Paul Motian / Chris Potter / Jason Moran
Album: Lost in a Dream
Released: 2010
Label: ECM
Catalog N°: ECM 2128
Genre: Vocal Jazz
Cover: All Cover Hq 300 dpi

FLAC

Track Listings:

Mode VI;
Casino;
Lost In A Dream;
Blue Midnight;
Be Careful It's My Heart;
Birdsong;
Ten;
Drum Music;
Abacus;
Cathedral Song.

Review:



allaboutjazz.com
By John Kelman

With the realization that there will always be more music coming at him than he can keep up with, AAJ Managing Editor John Kelman wonders why anyone would think that jazz is dead or dying.

Though he's led larger ensembles, drummer Paul Motian seems to be most comfortable—or, at the very least, most interested—in working within the particular confines and freedoms of the trio. Whether it's his quarter century old group with guitarist Bill Frisell and saxophonist Joe Lovano, or the early saxophone/bass/drums trio of Dance (ECM, 1978) and Le Voyage (ECM, 1979), Motian has spent much of his career as a leader exploring a format less intimate than the duo, perhaps, but still small enough a conversational context to allow its participants to speak with a single voice. Lost In A Dream, recorded live at New York's Village Vanguard in the winter of 2009, features a new trio with saxophonist Chris Potter, with whom Motian has worked since 1994, and pianist Jason Moran, whose relationship with the iconic drummer is just beginning.

Being an all-acoustic ensemble, the trio lacks the inherent ethereality of Motian's group with the electrically expansive Frisell, most notably on 2005's I Have the Room Above Her (ECM), but that doesn't mean it can't approach similar rarified atmospheres. Potter may be a firebrand when working with bassist Dave Holland, heard recently on the incendiary The Monterey Quartet: Live at the 2007 Monterey Jazz Festival (Monterey Jazz Festival, 2009), but here he proves himself as much a master of restraint as Motian, who contributes all but one track to this collection. Potter plays, in fact, with unusual economy and a softer-than-usual timbre, holding off until over 20 minutes into this hour-long set, and the aptly titled "Blue Midnight," before turning up the heat and leaning more towards his typically robust tone and expressionist approach.

The entire set works on an upward trajectory, progressing into increasingly liberated and powerful landscapes. The trio draws on material dating as far back as Voyage, including the free-wheeling "Drum Music" and equally open-ended "Abacus," a solo feature for Motian, whose textural breadth and dynamism continue to evolve, even as he approaches octogenarian status. Motian's newer material leans largely towards the subdued and lyrical, including the closing "Cathedral," where Moran plays with a gentility slightly skewed by his characteristically idiosyncratic tendencies.

Moran's career continues to be a curious one. Since emerging in the late-1990s, his best work has been under the leadership of others, most notably saxophonist Charles Lloyd's Rabo de Nube (ECM, 2008) and reedman Don Byron's Ivey-Divey (Blue Note, 2005). Lost In a Dream demonstrates his specific aptitude as a band member rather than band leader once again, as the pianist provides a shifting harmonic context for this bass-less trio, working beautifully with Motian's in-the-moment layering of percussive colors.

"Casino," the disc's longest track, demonstrates the trio's ability to mine the nuances of Motian's sketch-like writing, while the knotty, rubato "Ten" provides both Moran and Potter the chance to explore greater strength and tensility. Lost In A Dream may be the first salvo from this empathic new trio, but hopefully it won't be the last.

Track listing: Mode VI; Casino; Lost In A Dream; Blue Midnight; Be Careful It's My Heart; Birdsong; Ten; Drum Music; Abacus; Cathedral Song.

Personnel: Chris Potter: tenor saxophone; Jason Moran: piano; Paul Motian: drums.




italia.allaboutjazz.com
Paul Motian torna a registrare al Village Vanguard. E lo fa con un trio, formazione che esalta al massimo grado la sua poetica asciutta, spigolosa, immersa nei silenzi. Il gioco trigonometrico che scolpisce e attraversa lo spazio è sempre stato un motivo di stimolo, di riflessione, di approfondimento per il lavoro del batterista. Un'attrazione iniziata con Bill Evans e Scott LaFaro, che poi ha imboccato strade proprie con diverse varianti di organico: il trio con sax e contrabbasso, quello con sax e chitarra, sviluppato a lungo con Bill Frisell e Joe Lovano.

Questa nuova versione strumentale, con Jason Moran al pianoforte e Chris Potter al sax tenore, scandisce una tappa successiva sullo stesso percorso tracciato insieme a Frisell e Lovano. Il pianoforte che subentra alla chitarra definisce un campo timbrico più ristretto, più rigoroso, ma non per questo meno propenso a soluzioni aperte. Anzi, ne guadagna l'aspetto ascetico, scheletrico, enigmatico della musica di Motian, che galleggia senza gravità come tela di ragno.

Molto merito va a un Jason Moran che si pone sulla stessa lunghezza d'onda del batterista, evocando silenzi e tracciando cupe trame enigmatiche, a tratti taglienti e corrosive, a tratti più delicate, ma sempre dense di senso. Lo si ascolti nell'introduzione di "Casino" e insieme al sublime Motian nelle prime battute di "Lost in a Dream".

La musica che ne scaturisce è di altissima suggestione, e il terzo vertice del triangolo, Chris Potter, vi si immerge con forza e imbocca percorsi titanici. Musica che spesso acquista una densità febbrile, come nel caso del duetto tra piano e batteria in "Drum Song," vecchio cavallo di battaglia di Motian. Ma il cui disegno generale resta definito, incisivo come in un'acquaforte, filigranato in senso quasi orientale.


Valutazione: 4.5 stelle

Elenco dei brani:
1. Mode VI; 2. Casino; 3. Lost in a Dream; 4. Blue Midnight; 5. Be Careful It's My Heart; 6. Birdsong; 7. Ten; 8. Drum Music; 9. Abacus; 10. Cathedral Song.
Tutti i brani di Paul Motian, tranne il nr. 5, di Irving Berlin.

Musicisti:
Paul Motian (batteria); Chris Potter (sax tenore); Jason Moran (pianoforte).


EAC LOG

Codice: [Devi essere iscritto e connesso per vedere questo link]


Exact Audio Copy V0.99 prebeta 5 from 4. May 2009

EAC extraction logfile from 26. March 2010, 14:16

Paul Motian / Lost In A Dream

Used drive  : HL-DT-STDVDRAM GSA-T40N   Adapter: 0  ID: 0

Read mode               : Secure
Utilize accurate stream : Yes
Defeat audio cache      : Yes
Make use of C2 pointers : No

Read offset correction                      : 667
Overread into Lead-In and Lead-Out          : No
Fill up missing offset samples with silence : Yes
Delete leading and trailing silent blocks   : No
Null samples used in CRC calculations       : Yes
Used interface                              : Installed external ASPI interface
Gap handling                                : Appended to previous track

Used output format              : User Defined Encoder
Selected bitrate                : 128 kBit/s
Quality                         : High
Add ID3 tag                     : No
Command line compressor         : C:\Program Files\FLAC\flac.exe
Additional command line options : -8 -V -T "ARTIST=%a" -T "TITLE=%t" -T "ALBUM=%g" -T "DATE=%y" -T "TRACKNUMBER=%n" -T "GENRE=%m" -T "COMMENT=EAC FLAC -8" %s


TOC of the extracted CD

     Track |   Start  |  Length  | Start sector | End sector
    ---------------------------------------------------------
        1  |  0:00.00 |  5:09.35 |         0    |    23209   
        2  |  5:09.35 |  8:05.08 |     23210    |    59592   
        3  | 13:14.43 |  6:39.03 |     59593    |    89520   
        4  | 19:53.46 |  6:09.32 |     89521    |   117227   
        5  | 26:03.03 |  2:58.17 |    117228    |   130594   
        6  | 29:01.20 |  6:52.13 |    130595    |   161507   
        7  | 35:53.33 |  4:29.68 |    161508    |   181750   
        8  | 40:23.26 |  6:07.16 |    181751    |   209291   
        9  | 46:30.42 |  4:25.39 |    209292    |   229205   
       10  | 50:56.06 |  6:29.31 |    229206    |   258411   


Track  1

     Filename D:\eac\01 - Mode VI.wav

     Pre-gap length  0:00:02.00

     Peak level 92.7 %
     Track quality 99.9 %
     Test CRC E3697563
     Copy CRC E3697563
     Track not present in AccurateRip database
     Copy OK

Track  2

     Filename D:\eac\02 - Casino.wav

     Peak level 81.4 %
     Track quality 100.0 %
     Test CRC 53BFD570
     Copy CRC 53BFD570
     Track not present in AccurateRip database
     Copy OK

Track  3

     Filename D:\eac\03 - Lost In A Dream.wav

     Peak level 94.9 %
     Track quality 100.0 %
     Test CRC 627B7DA9
     Copy CRC 627B7DA9
     Track not present in AccurateRip database
     Copy OK

Track  4

     Filename D:\eac\04 - Blue Midnight.wav

     Peak level 94.7 %
     Track quality 100.0 %
     Test CRC F21E6064
     Copy CRC F21E6064
     Track not present in AccurateRip database
     Copy OK

Track  5

     Filename D:\eac\05 - Be Careful It's My Heart.wav

     Peak level 63.6 %
     Track quality 100.0 %
     Test CRC 20007625
     Copy CRC 20007625
     Track not present in AccurateRip database
     Copy OK

Track  6

     Filename D:\eac\06 - Birdsong.wav

     Peak level 73.3 %
     Track quality 100.0 %
     Test CRC F8CDB845
     Copy CRC F8CDB845
     Track not present in AccurateRip database
     Copy OK

Track  7

     Filename D:\eac\07 - Ten.wav

     Peak level 96.7 %
     Track quality 100.0 %
     Test CRC A4F66745
     Copy CRC A4F66745
     Track not present in AccurateRip database
     Copy OK

Track  8

     Filename D:\eac\08 - Drum Music.wav

     Peak level 97.7 %
     Track quality 100.0 %
     Test CRC AC39AE13
     Copy CRC AC39AE13
     Track not present in AccurateRip database
     Copy OK

Track  9

     Filename D:\eac\09 - Abacus.wav

     Peak level 97.8 %
     Track quality 100.0 %
     Test CRC 76E8F603
     Copy CRC 76E8F603
     Track not present in AccurateRip database
     Copy OK

Track 10

     Filename D:\eac\10 - Cathedral Song.wav

     Peak level 93.1 %
     Track quality 100.0 %
     Test CRC F44202D2
     Copy CRC F44202D2
     Track not present in AccurateRip database
     Copy OK


None of the tracks are present in the AccurateRip database

No errors occurred

End of status report





File Format:

[Devi essere iscritto e connesso per vedere questo link] Paul Motian - Lost In A Dream - 2010 [ECM 2128] flac [335.57 Mb]
avatar
*FARFIX*
Utente Medio
Utente Medio

Messaggi : 238
Reputazione Utente : 11
Data d'iscrizione : 15.05.10

Vedi il profilo dell'utente

Tornare in alto Andare in basso

Vedere l'argomento precedente Vedere l'argomento seguente Tornare in alto

- Argomenti simili

 
Permessi di questa sezione del forum:
Non puoi rispondere agli argomenti in questo forum