The World Of Download

benvenuti nel mio forum vi divertirete un casino!!.
registratevi x entrare nel piu entusiasmante forum e x accedere a un sacco di belle categorie.!!
qua troverete tt cio ke cercate"!!!!!!!!!!!!!!!!

B.o.B. - B.o.B.Presents:The Adventures Of Bobby Ray[Target Deluxe Edition](2010)

Vedere l'argomento precedente Vedere l'argomento seguente Andare in basso

B.o.B. - B.o.B.Presents:The Adventures Of Bobby Ray[Target Deluxe Edition](2010)

Messaggio Da *FARFIX* il Sab Giu 26, 2010 9:47 am

[Devi essere iscritto e connesso per vedere questa immagine]



Artist: B.o.B.
Album:B.o.B. Presents: The Adventures Of Bobby Ray
Released: Aprile 2010
Label: Rebel Rock
Genre:Rap,Hip Hop

Track Listings:
1. "Don't Let Me Fall"
2. "Nothin' on You" (featuring Bruno Mars)
3. "Past My Shades" (featuring Lupe Fiasco)
4. "Airplanes" (featuring Hayley Williams of Paramore)
5. "Bet I" (featuring T.I. & Playboy Tre)
6. "Ghost in the Machine"
7. "The Kids" (featuring Janelle Monae)
8. "Magic" (featuring Rivers Cuomo of Weezer)
9. "Fame"
10. "Lovelier Than You"
11. "5th Dimension" (featuring Ricco Barrino)
12. "Airplanes, Part II" (featuring Eminem & Hayley Williams)
Bonus tracks
13. "Letters from Vietnam"
14. "I See Ya"


Review:When asked about his collaboration with pop-punk vocalist Hayley Williams, Atlanta-based alternative hip-hop artist B.o.B responded “Paramore is the sh*t,” instantly driving away the hip-hop purists. He went on to declare that the audience for Williams’ band was the same audience for Lupe Fiasco, Common, and himself. That’s the rapper/producer/songwriter’s attitude in a nutshell, and it’s also the genre-free, music-loving, and even starry-eyed attitude of his debut album, The Adventures of Bobby Ray, a reference to the B.o.B’s real name, Bobby Ray Simmons. “Airplanes” is the Coldplay-sized, emo-rap track with Williams that brings reminders of the Dido/Eminem collaboration “Stan,” at least when it comes to rock-solid hooks, since the sentiment here is much more hopeful. The uncrushable B.o.B is always filled with positive vibes and he isn’t above pouring on the sweetness as he courts the ladies with hitmaker for hire Bruno Mars on “Nothin’ on You,” a song that’s perfectly packaged for some Hollywood romantic comedy. Add to that “Lovelier Than You,” where B.o.B sounds like Wyclef when he plays it sparse, and you’ve got the poptacular moments, but the street tracks and backpacker material works just as well, with the T.I. feature “Bet I” being Hotlanta at its hottest while “Don’t Let Me Fall” is the “where I’m from” track at its best. The chart-friendly side of indie rock shows its influence in the Vampire Weekend-sampling “The Kids” with Janelle Monáe plus the retro-electro “Magic” with Rivers Cuomo, which becomes B.o.B’s theme song once he drops “I break all the rules like Evil Knievel/I put on a spectacular show because my heart pumps diesel.” Even if B.o.B had a couple years of mixtape training before releasing his debut, the most startling thing is how effortless he makes all this genre-juggling seem, especially on repeat listens as the album evolves from a high-caliber collection of singles to a unified body of work. There’s little evidence here that this would even be possible without the work of André 3000, Kanye, and Drake, and B.o.B definitely loves new ideas more than he generates them. Still, he’s an amazing ringmaster for the age of mash-ups and wonky pop, and for his debut album he’s equally thrilling as the main attraction.


Codice: [Devi essere iscritto e connesso per vedere questo link]
Exact Audio Copy V0.99 prebeta 5 from 4. May 2009

EAC extraction logfile from 27. April 2010, 17:47

B.o.B / B.o.B Presents: The Adventures of Bobby Ray

Used drive  : _NEC    DVD+-RW ND-6650A   Adapter: 1  ID: 0

Read mode               : Secure
Utilize accurate stream : Yes
Defeat audio cache      : Yes
Make use of C2 pointers : No

Read offset correction                      : 48
Overread into Lead-In and Lead-Out          : No
Fill up missing offset samples with silence : Yes
Delete leading and trailing silent blocks   : No
Null samples used in CRC calculations       : Yes
Used interface                              : Native Win32 interface for Win NT & 2000
Gap handling                                : Appended to previous track

Used output format              : User Defined Encoder
Selected bitrate                : 320 kBit/s
Quality                         : High
Add ID3 tag                     : No
Command line compressor         : C:\Program Files\Exact Audio Copy\Flac\flac.exe
Additional command line options : -V -8 -T "artist=%a" -T "title=%t" -T "album=%g" -T "date=%y" -T "tracknumber=%n" -T "genre=%m" %s


TOC of the extracted CD

     Track |   Start  |  Length  | Start sector | End sector
    ---------------------------------------------------------
        1  |  0:00.00 |  4:35.29 |         0    |    20653   
        2  |  4:35.29 |  4:29.47 |     20654    |    40875   
        3  |  9:05.01 |  3:33.69 |     40876    |    56919   
        4  | 12:38.70 |  3:01.08 |     56920    |    70502   
        5  | 15:40.03 |  4:17.69 |     70503    |    89846   
        6  | 19:57.72 |  4:53.04 |     89847    |   111825   
        7  | 24:51.01 |  3:26.68 |    111826    |   127343   
        8  | 28:17.69 |  3:16.12 |    127344    |   142055   
        9  | 31:34.06 |  3:41.67 |    142056    |   158697   
       10  | 35:15.73 |  4:04.41 |    158698    |   177038   
       11  | 39:20.39 |  3:23.41 |    177039    |   192304   
       12  | 42:44.05 |  5:19.33 |    192305    |   216262   
       13  | 48:03.38 |  4:13.49 |    216263    |   235286   
       14  | 52:17.12 |  3:18.59 |    235287    |   250195   


Track  1

     Filename F:\B.o.B -  - B.o.B Presents- The Adventures of Bobby Ray\01 - Don't Let Me Fall - B.o.B.wav

     Pre-gap length  0:00:02.00

     Peak level 97.7 %
     Track quality 100.0 %
     Test CRC 4075D51D
     Copy CRC 4075D51D
     Track not present in AccurateRip database
     Copy OK

Track  2

     Filename F:\B.o.B -  - B.o.B Presents- The Adventures of Bobby Ray\02 - Nothin' On You (feat. Bruno Mars) - B.o.B.wav

     Peak level 100.0 %
     Track quality 99.9 %
     Test CRC 52111CCD
     Copy CRC 52111CCD
     Track not present in AccurateRip database
     Copy OK

Track  3

     Filename F:\B.o.B -  - B.o.B Presents- The Adventures of Bobby Ray\03 - Past My Shades (feat. Lupe Fiasco) - B.o.B.wav

     Peak level 99.8 %
     Track quality 100.0 %
     Test CRC BBF41CC8
     Copy CRC BBF41CC8
     Track not present in AccurateRip database
     Copy OK

Track  4

     Filename F:\B.o.B -  - B.o.B Presents- The Adventures of Bobby Ray\04 - Airplanes (feat. Hayley Williams of Paramore) - B.o.B.wav

     Peak level 99.8 %
     Track quality 100.0 %
     Test CRC 5B46C206
     Copy CRC 5B46C206
     Track not present in AccurateRip database
     Copy OK

Track  5

     Filename F:\B.o.B -  - B.o.B Presents- The Adventures of Bobby Ray\05 - Bet I (feat. T.I. & Playboy Tre) - B.o.B.wav

     Peak level 97.7 %
     Track quality 100.0 %
     Test CRC 16503DE8
     Copy CRC 16503DE8
     Track not present in AccurateRip database
     Copy OK

Track  6

     Filename F:\B.o.B -  - B.o.B Presents- The Adventures of Bobby Ray\06 - Ghost In The Machine - B.o.B.wav

     Peak level 97.7 %
     Track quality 100.0 %
     Test CRC A3B57F60
     Copy CRC A3B57F60
     Track not present in AccurateRip database
     Copy OK

Track  7

     Filename F:\B.o.B -  - B.o.B Presents- The Adventures of Bobby Ray\07 - The Kids (feat. Janelle Monáe) - B.o.B.wav

     Peak level 99.8 %
     Track quality 100.0 %
     Test CRC 0F23C965
     Copy CRC 0F23C965
     Track not present in AccurateRip database
     Copy OK

Track  8

     Filename F:\B.o.B -  - B.o.B Presents- The Adventures of Bobby Ray\08 - Magic (feat. Rivers Cuomo) - B.o.B.wav

     Peak level 99.8 %
     Track quality 100.0 %
     Test CRC 40E82C9E
     Copy CRC 40E82C9E
     Track not present in AccurateRip database
     Copy OK

Track  9

     Filename F:\B.o.B -  - B.o.B Presents- The Adventures of Bobby Ray\09 - Fame - B.o.B.wav

     Peak level 100.0 %
     Track quality 100.0 %
     Test CRC 56C27FD3
     Copy CRC 56C27FD3
     Track not present in AccurateRip database
     Copy OK

Track 10

     Filename F:\B.o.B -  - B.o.B Presents- The Adventures of Bobby Ray\10 - Lovelier Than You - B.o.B.wav

     Peak level 97.7 %
     Track quality 100.0 %
     Test CRC 3732F707
     Copy CRC 3732F707
     Track not present in AccurateRip database
     Copy OK

Track 11

     Filename F:\B.o.B -  - B.o.B Presents- The Adventures of Bobby Ray\11 - 5th Dimension (feat. Ricco Barrino) - B.o.B.wav

     Pre-gap length  0:00:01.10

     Peak level 97.7 %
     Track quality 99.9 %
     Test CRC E31B9FF8
     Copy CRC E31B9FF8
     Track not present in AccurateRip database
     Copy OK

Track 12

     Filename F:\B.o.B -  - B.o.B Presents- The Adventures of Bobby Ray\12 - Airplanes, Part II (feat. Eminem & Hayley Williams of Paramore) - B.o.B.wav

     Peak level 99.8 %
     Track quality 99.9 %
     Test CRC 4F8B12BC
     Copy CRC 4F8B12BC
     Track not present in AccurateRip database
     Copy OK

Track 13

     Filename F:\B.o.B -  - B.o.B Presents- The Adventures of Bobby Ray\13 - Letters From Vietnam - B.o.B.wav

     Peak level 97.7 %
     Track quality 100.0 %
     Test CRC 2F0A6DBD
     Copy CRC 2F0A6DBD
     Track not present in AccurateRip database
     Copy OK

Track 14

     Filename F:\B.o.B -  - B.o.B Presents- The Adventures of Bobby Ray\14 - I See Ya - B.o.B.wav

     Peak level 97.7 %
     Track quality 100.0 %
     Test CRC 7397927C
     Copy CRC 7397927C
     Track not present in AccurateRip database
     Copy OK


None of the tracks are present in the AccurateRip database

No errors occurred

End of status report


[Devi essere iscritto e connesso per vedere questo link]
avatar
*FARFIX*
Utente Medio
Utente Medio

Messaggi : 238
Reputazione Utente : 11
Data d'iscrizione : 15.05.10

Vedi il profilo dell'utente

Tornare in alto Andare in basso

Vedere l'argomento precedente Vedere l'argomento seguente Tornare in alto

- Argomenti simili

 
Permessi di questa sezione del forum:
Non puoi rispondere agli argomenti in questo forum