The World Of Download

benvenuti nel mio forum vi divertirete un casino!!.
registratevi x entrare nel piu entusiasmante forum e x accedere a un sacco di belle categorie.!!
qua troverete tt cio ke cercate"!!!!!!!!!!!!!!!!

Monica - Still Standing (2010)

Vedere l'argomento precedente Vedere l'argomento seguente Andare in basso

Monica - Still Standing (2010)

Messaggio Da *FARFIX* il Sab Giu 26, 2010 9:52 am

[Devi essere iscritto e connesso per vedere questa immagine]

Artist: Monica
Album: Still Standing
Released: 2010
Label: J-Records
Catalog N°: 40398
Genre: R&B Adult

Track Listings:

01. Still Standing (feat. Ludacris)
02. One In a Lifetime
03. Stay or Go
04. Everything to Me
05. If You Were My Man
06. Mirror
07. Here I Am
08. Superman
09. Love All Over Me
10. Believing In Me


Review:

Still Standing’s title track was issued as a single weeks prior to Monica’s BET reality series of the same name, which debuted in October 2009. Even though the song is a potent, low-profile anthem akin to a grown-up and feminized spin on T.I.’s “What You Know,” it topped out in the 70s of the R&B/Hip-Hop Songs chart. The album seemed like it might be dead well before release until “Everything to Me” — based on Deniece Williams' 1981 quiet storm “Silly” — trailed in February and was in the Top Ten within a month, significantly raising the profile for Monica’s fifth album. Some fans will be irritated that it took Monica three-and-a-half years to follow up a ten-song album with a set of equally brief length, but Still Standing benefits from quality control and a handful of particularly strong ballads. If the album is missing anything, it’s the sharp and casual wrath last dealt in “Sideline Ho.” Instead, we get her singing different lyrics over Evelyn King's similarly cautionary and aggressive “Betcha She Don’t Love You” for “If You Were My Man” (like “Everything to Me,” a collaboration with Missy Elliott and the ever-undervalued Jazmine Sullivan), so it’s really not that much of a problem.


Codice: [Devi essere iscritto e connesso per vedere questo link]
Exact Audio Copy V0.99 prebeta 5 from 4. May 2009

EAC 抓取日志文件从6. 五月 2010, 20:16

Monica / Still Standing

使用驱动器  :PIONEER DVD-RW  DVR-118L   Adapter: 0  ID: 0

读取模式     : 保护
使用精确流   : 是
废除音频缓冲 : 是
使用 C2 指针 : 否

读取偏移校正                   : 2130
读取 Lead-In 和 Lead-Out       : 否
用静音填充抓取中丢失偏移的采样 : 是
去除首尾静音块                 : 否
在 CRC 计算中使用了空样本      : 是
已用接口                       : Win NT 及 2000 本地 Win32 接口

所用输出格式 : 内部 WAV 函数
样本格式     : 44.100 Hz;16 Bit;立体声


被抓轨 CD 的 TOC

     音轨 |   开始   |   长度   | 起始扇区 | 结尾扇区
    --------------------------------------------------
       1  |  0:00.00 |  4:14.01 |       0  |   19050 
       2  |  4:14.01 |  4:31.27 |   19051  |   39402 
       3  |  8:45.28 |  3:40.33 |   39403  |   55935 
       4  | 12:25.61 |  3:16.72 |   55936  |   70707 
       5  | 15:42.58 |  3:26.07 |   70708  |   86164 
       6  | 19:08.65 |  4:17.17 |   86165  |  105456 
       7  | 23:26.07 |  3:43.57 |  105457  |  122238 
       8  | 27:09.64 |  4:32.54 |  122239  |  142692 
       9  | 31:42.43 |  3:49.71 |  142693  |  159938 
      10  | 35:32.39 |  4:00.37 |  159939  |  177975 


范围状态及错误

已选择范围

     文件名 D:\Yuan Zhua\Monica - Still Standing.wav

     峰值电平 100.0 %
     范围质量 100.0 %
     复制 CRC 6726AA85
     复制成功

没有错误发生

状态报告结尾

File Format: Flac
[Devi essere iscritto e connesso per vedere questa immagine] [Devi essere iscritto e connesso per vedere questo link]
avatar
*FARFIX*
Utente Medio
Utente Medio

Messaggi : 238
Reputazione Utente : 11
Data d'iscrizione : 15.05.10

Vedi il profilo dell'utente

Tornare in alto Andare in basso

Vedere l'argomento precedente Vedere l'argomento seguente Tornare in alto

- Argomenti simili

 
Permessi di questa sezione del forum:
Non puoi rispondere agli argomenti in questo forum