The World Of Download

benvenuti nel mio forum vi divertirete un casino!!.
registratevi x entrare nel piu entusiasmante forum e x accedere a un sacco di belle categorie.!!
qua troverete tt cio ke cercate"!!!!!!!!!!!!!!!!

Mary J. Blige - Stronger With each Tear (2009)

Vedere l'argomento precedente Vedere l'argomento seguente Andare in basso

Mary J. Blige - Stronger With each Tear (2009)

Messaggio Da *FARFIX* il Sab Giu 26, 2010 9:57 am

[Devi essere iscritto e connesso per vedere questa immagine]

Artist: Mary J Blige
Album: Stronger with each tear
Released: 2009
Label: Geffen
Catalog N°: B0013722-02
Genre: RnB

Track Listings:


01. Tonight
02. The One ft. Drake
03. Said and Done
04. Good Love ft. T.I.
05. I Feel Good
06. I Am
07. Each Tear
08. I Love You (Yes I Do)
09. We Got Hood Love ft. Trey Songz
10. Kitchen
11. In The Morning
12. Color



Codice: [Devi essere iscritto e connesso per vedere questo link]
Exact Audio Copy V0.99 prebeta 5 from 4. May 2009

EAC extraction logfile from 15. December 2009, 20:43

Mary J Blige / Stronger withEach Tear

Used drive  : ASUS    DRW-1814BL   Adapter: 3  ID: 1

Read mode               : Secure
Utilize accurate stream : Yes
Defeat audio cache      : Yes
Make use of C2 pointers : No

Read offset correction                      : 6
Overread into Lead-In and Lead-Out          : No
Fill up missing offset samples with silence : Yes
Delete leading and trailing silent blocks   : No
Null samples used in CRC calculations       : Yes
Used interface                              : Native Win32 interface for Win NT & 2000
Gap handling                                : Appended to previous track

Used output format              : User Defined Encoder
Selected bitrate                : 1024 kBit/s
Quality                         : High
Add ID3 tag                     : No
Command line compressor         : C:\Program Files\Exact Audio Copy\FLAC\FLAC.EXE
Additional command line options : -V -8 -T "ARTIST=%a" -T "TITLE=%t" -T "ALBUM=%g" -T "DATE=%y" -T "TRACKNUMBER=%n" -T "GENRE=%m" -T "COMMENT=%e" %s -o %d


TOC of the extracted CD

     Track |   Start  |  Length  | Start sector | End sector
    ---------------------------------------------------------
        1  |  0:00.00 |  4:00.43 |         0    |    18042 
        2  |  4:00.43 |  3:13.67 |     18043    |    32584 
        3  |  7:14.35 |  3:23.26 |     32585    |    47835 
        4  | 10:37.61 |  4:01.04 |     47836    |    65914 
        5  | 14:38.65 |  3:47.13 |     65915    |    82952 
        6  | 18:26.03 |  3:23.39 |     82953    |    98216 
        7  | 21:49.42 |  4:15.14 |     98217    |   117355 
        8  | 26:04.56 |  3:23.10 |    117356    |   132590 
        9  | 29:27.66 |  4:15.01 |    132591    |   151716 
       10  | 33:42.67 |  4:30.65 |    151717    |   172031 
       11  | 38:13.57 |  4:35.58 |    172032    |   192714 
       12  | 42:49.40 |  5:32.57 |    192715    |   217671

File Format: Flac
[Devi essere iscritto e connesso per vedere questa immagine] [Devi essere iscritto e connesso per vedere questo link]
avatar
*FARFIX*
Utente Medio
Utente Medio

Messaggi : 238
Reputazione Utente : 11
Data d'iscrizione : 15.05.10

Vedi il profilo dell'utente

Tornare in alto Andare in basso

Vedere l'argomento precedente Vedere l'argomento seguente Tornare in alto

- Argomenti simili

 
Permessi di questa sezione del forum:
Non puoi rispondere agli argomenti in questo forum