The World Of Download

benvenuti nel mio forum vi divertirete un casino!!.
registratevi x entrare nel piu entusiasmante forum e x accedere a un sacco di belle categorie.!!
qua troverete tt cio ke cercate"!!!!!!!!!!!!!!!!

Sugababes - Sweet 7 (2010)

Vedere l'argomento precedente Vedere l'argomento seguente Andare in basso

Sugababes - Sweet 7 (2010)

Messaggio Da *FARFIX* il Sab Giu 26, 2010 10:05 am

[Devi essere iscritto e connesso per vedere questa immagine]

Artist: Sugababes
Album: Sweet 7
Released: 2010
Label: Universal
Catalog N°: 2727295
Genre: Pop

Track Listings:

01. Get Sexy
02. Wear My Kiss
03. About A Girl
04. Wait For You
05. Thank You For The Heartbreak
06. Miss Everything - Sugababes, Sean Kingston
07. She's A Mess
08. Give It To Me Now
09. Crash & Burn
10. No More You
11. Sweet & Amazing (Make It The Best)
12. Little Miss Perfect






Codice: [Devi essere iscritto e connesso per vedere questo link]
Exact Audio Copy V0.99 prebeta 4 from 23. January 2008

EAC extraction logfile from 8. March 2010, 18:56

Sugababes / Sweet 7

Used drive : TSSTcorpDVD-ROM TS-H352C Adapter: 0 ID: 0

Read mode : Secure
Utilize accurate stream : Yes
Defeat audio cache : Yes
Make use of C2 pointers : No

Read offset correction : 6
Overread into Lead-In and Lead-Out : No
Fill up missing offset samples with silence : Yes
Delete leading and trailing silent blocks : No
Null samples used in CRC calculations : Yes
Used interface : Installed external ASPI interface
Gap handling : Appended to previous track

Used output format : User Defined Encoder
Selected bitrate : 320 kBit/s
Quality : High
Add ID3 tag : No
Command line compressor : C:\Program Files\Exact Audio Copy\Flac\flac.exe
Additional command line options : -V -8 -T "artist=%a" -T "title=%t" -T "album=%g" -T "date=%y" -T "tracknumber=%n" -T "genre=%m" %s


TOC of the extracted CD

Track | Start | Length | Start sector | End sector
---------------------------------------------------------
1 | 0:00.00 | 3:13.60 | 0 | 14534
2 | 3:13.60 | 3:43.39 | 14535 | 31298
3 | 6:57.24 | 3:28.34 | 31299 | 46932
4 | 10:25.58 | 3:53.57 | 46933 | 64464
5 | 14:19.40 | 3:41.47 | 64465 | 81086
6 | 18:01.12 | 3:39.29 | 81087 | 97540
7 | 21:40.41 | 3:26.44 | 97541 | 113034
8 | 25:07.10 | 3:00.38 | 113035 | 126572
9 | 28:07.48 | 3:34.70 | 126573 | 142692
10 | 31:42.43 | 4:17.24 | 142693 | 161991
11 | 35:59.67 | 3:52.48 | 161992 | 179439
12 | 39:52.40 | 3:56.01 | 179440 | 197140
13 | 46:20.41 | 2:16.25 | 208541 | 218765


Track 1

Filename C:\Rip\Music\Sugababes - Sweet 7 [2010]\01-Get Sexy.wav

Pre-gap length 0:00:02.00

Peak level 100.0 %
Track quality 100.0 %
Test CRC 1F093738
Copy CRC 1F093738
Track not present in AccurateRip database
Copy OK

Track 2

Filename C:\Rip\Music\Sugababes - Sweet 7 [2010]\02-Wear My Kiss.wav

Peak level 100.0 %
Track quality 100.0 %
Test CRC A5CF27D4
Copy CRC A5CF27D4
Track not present in AccurateRip database
Copy OK

Track 3

Filename C:\Rip\Music\Sugababes - Sweet 7 [2010]\03-About A Girl.wav

Peak level 99.9 %
Track quality 100.0 %
Test CRC 446B504B
Copy CRC 446B504B
Track not present in AccurateRip database
Copy OK

Track 4

Filename C:\Rip\Music\Sugababes - Sweet 7 [2010]\04-Wait For You.wav

Peak level 100.0 %
Track quality 99.9 %
Test CRC 4C8161F7
Copy CRC 4C8161F7
Track not present in AccurateRip database
Copy OK

Track 5

Filename C:\Rip\Music\Sugababes - Sweet 7 [2010]\05-Thank You For The Heartbreak.wav

Peak level 99.9 %
Track quality 100.0 %
Test CRC 8458135A
Copy CRC 8458135A
Track not present in AccurateRip database
Copy OK

Track 6

Filename C:\Rip\Music\Sugababes - Sweet 7 [2010]\06-Miss Everything.wav

Peak level 100.0 %
Track quality 100.0 %
Test CRC 070C01C0
Copy CRC 070C01C0
Track not present in AccurateRip database
Copy OK

Track 7

Filename C:\Rip\Music\Sugababes - Sweet 7 [2010]\07-Shes A Mess.wav

Peak level 100.0 %
Track quality 100.0 %
Test CRC 314EB068
Copy CRC 314EB068
Track not present in AccurateRip database
Copy OK

Track 8

Filename C:\Rip\Music\Sugababes - Sweet 7 [2010]\08-Give It To Me Now.wav

Peak level 99.9 %
Track quality 100.0 %
Test CRC 41C889BC
Copy CRC 41C889BC
Track not present in AccurateRip database
Copy OK

Track 9

Filename C:\Rip\Music\Sugababes - Sweet 7 [2010]\09-Crash And Burn.wav

Peak level 99.9 %
Track quality 100.0 %
Test CRC 7850249A
Copy CRC 7850249A
Track not present in AccurateRip database
Copy OK

Track 10

Filename C:\Rip\Music\Sugababes - Sweet 7 [2010]\10-No More You.wav

Peak level 99.9 %
Track quality 100.0 %
Test CRC 5B29D4BB
Copy CRC 5B29D4BB
Track not present in AccurateRip database
Copy OK

Track 11

Filename C:\Rip\Music\Sugababes - Sweet 7 [2010]\11-Sweet And Amazing (Make It The Best).wav

Peak level 99.9 %
Track quality 100.0 %
Test CRC 8590650C
Copy CRC 8590650C
Track not present in AccurateRip database
Copy OK

Track 12

Filename C:\Rip\Music\Sugababes - Sweet 7 [2010]\12-Little Miss Perfect.wav

Peak level 99.9 %
Track quality 100.0 %
Test CRC A430DD66
Copy CRC A430DD66
Track not present in AccurateRip database
Copy OK

None of the tracks are present in the AccurateRip database

No errors occurred

End of status report

File Format: Flac
[Devi essere iscritto e connesso per vedere questa immagine] [Devi essere iscritto e connesso per vedere questo link]
avatar
*FARFIX*
Utente Medio
Utente Medio

Messaggi : 238
Reputazione Utente : 11
Data d'iscrizione : 15.05.10

Vedi il profilo dell'utente

Tornare in alto Andare in basso

Re: Sugababes - Sweet 7 (2010)

Messaggio Da *ZeUs* il Sab Giu 26, 2010 10:44 am

che bell acopertina Razz


Ciao Benevenuti in TheBestHacks

Prima di iniziare a postare vi invito a presentarvi qua :

[Devi essere iscritto e connesso per vedere questo link]

[Devi essere iscritto e connesso per vedere questa immagine]

[Devi essere iscritto e connesso per vedere questa immagine]
avatar
*ZeUs*
Amministratore
Amministratore

Messaggi : 687
Reputazione Utente : 21
Data d'iscrizione : 05.05.10

Vedi il profilo dell'utente http://thebesthack.top-forum.net

Tornare in alto Andare in basso

Vedere l'argomento precedente Vedere l'argomento seguente Tornare in alto

- Argomenti simili

 
Permessi di questa sezione del forum:
Non puoi rispondere agli argomenti in questo forum