The World Of Download

benvenuti nel mio forum vi divertirete un casino!!.
registratevi x entrare nel piu entusiasmante forum e x accedere a un sacco di belle categorie.!!
qua troverete tt cio ke cercate"!!!!!!!!!!!!!!!!

Various Artists - 2010 Grammy Nominees (2010)

Vedere l'argomento precedente Vedere l'argomento seguente Andare in basso

Various Artists - 2010 Grammy Nominees (2010)

Messaggio Da *FARFIX* il Sab Giu 26, 2010 10:10 am

[Devi essere iscritto e connesso per vedere questa immagine]

Artist: Various
Album: 2010 Grammy Nominees
Released: 2010
Label: n/a
Catalog N°: n/a
Genre: Pop Rock

Track Listings:

01. THE BLACK EYED PEAS, I Gotta Feeling
02. LADY GAGA, Poker Face
03. KINGS OF LEON, Use Somebody
04. DAVE MATTHEWS BAND, You & Me
05. TAYLOR SWIFT, You Belong With Me
06. COLBIE CAILLAT, Fallin' For You
07. THE FRAY, You Found Me
08. P!NK, Sober
09. KELLY CLARKSON, My Life Would Suck Without You
10. KATY PERRY, Hot N Cold
11. BEYONCE, Halo
12. ADELE, Hometown Glory
13. ZAC BROWN BAND, Chicken Fried
14. SUGARLAND, It Happens
15. LADY ANTEBELLUM, I Run To You
16. RASCAL FLATTS, Here Comes Goodbye
17. GREEN DAY, 21 Guns
18. COLDPLAY, Life In Technicolor ii
19. U2, I'll Go Crazy If I Don't Go Crazy Tonight
20. ERIC CLAPTON AND STEVE WINWOOD, Can't Find My Way Home




Codice: [Devi essere iscritto e connesso per vedere questo link]
Exact Audio Copy V0.99 prebeta 5 from 4. May 2009

EAC extraction logfile from 21. January 2010, 20:10

Various / 2010 Grammy Nominees

Used drive : HL-DT-STDVD-RAM GH22NS30 Adapter: 5 ID: 0

Read mode : Secure
Utilize accurate stream : Yes
Defeat audio cache : Yes
Make use of C2 pointers : No

Read offset correction : 102
Overread into Lead-In and Lead-Out : No
Fill up missing offset samples with silence : Yes
Delete leading and trailing silent blocks : No
Null samples used in CRC calculations : Yes
Used interface : Native Win32 interface for Win NT & 2000 SAV
Gap handling : Appended to previous track

Used output format : User Defined Encoder
Selected bitrate : 128 kBit/s
Quality : High
Add ID3 tag : No
Command line compressor : C:\Program Files (x86)\Exact Audio Copy\Flac\flac.exe
Additional command line options : -V -8 -T "artist=%a" -T "title=%t" -T "album=%g" -T "date=%y" -T "tracknumber=%n" -T "genre=%m" %s


TOC of the extracted CD

Track | Start | Length | Start sector | End sector
---------------------------------------------------------
1 | 0:00.00 | 4:07.15 | 0 | 18539
2 | 4:07.15 | 3:58.17 | 18540 | 36406
3 | 8:05.32 | 3:52.22 | 36407 | 53828
4 | 11:57.54 | 4:19.60 | 53829 | 73313
5 | 16:17.39 | 3:51.52 | 73314 | 90690
6 | 20:09.16 | 3:37.43 | 90691 | 107008
7 | 23:46.59 | 4:03.19 | 107009 | 125252
8 | 27:50.03 | 4:13.10 | 125253 | 144237
9 | 32:03.13 | 3:33.41 | 144238 | 160253
10 | 35:36.54 | 3:41.49 | 160254 | 176877
11 | 39:18.28 | 3:45.56 | 176878 | 193808
12 | 43:04.09 | 3:33.00 | 193809 | 209783
13 | 46:37.09 | 3:35.16 | 209784 | 225924
14 | 50:12.25 | 3:02.15 | 225925 | 239589
15 | 53:14.40 | 3:49.05 | 239590 | 256769
16 | 57:03.45 | 4:05.44 | 256770 | 275188
17 | 61:09.14 | 5:22.41 | 275189 | 299379
18 | 66:31.55 | 3:37.47 | 299380 | 315701
19 | 70:09.27 | 4:14.24 | 315702 | 334775
20 | 74:23.51 | 5:32.61 | 334776 | 359736


Track 1

Filename D:\temp\01 - I Gotta Feeling.wav

Pre-gap length 0:00:02.00

Peak level 99.6 %
Track quality 100.0 %
Test CRC 0B5E821F
Copy CRC 0B5E821F
Track not present in AccurateRip database
Copy OK

Track 2

Filename D:\temp\02 - Poker Face.wav

Peak level 100.0 %
Track quality 100.0 %
Test CRC 279E3F69
Copy CRC 279E3F69
Track not present in AccurateRip database
Copy OK

Track 3

Filename D:\temp\03 - Use Somebody.wav

Peak level 98.9 %
Track quality 100.0 %
Test CRC CF67BEA9
Copy CRC CF67BEA9
Track not present in AccurateRip database
Copy OK

Track 4

Filename D:\temp\04 - You & Me.wav

Peak level 100.0 %
Track quality 100.0 %
Test CRC 01FC0B3E
Copy CRC 01FC0B3E
Track not present in AccurateRip database
Copy OK

Track 5

Filename D:\temp\05 - You Belong With Me.wav

Peak level 100.0 %
Track quality 100.0 %
Test CRC A83E5821
Copy CRC A83E5821
Track not present in AccurateRip database
Copy OK

Track 6

Filename D:\temp\06 - Fallin' For You.wav

Peak level 100.0 %
Track quality 100.0 %
Test CRC F0CF6291
Copy CRC F0CF6291
Track not present in AccurateRip database
Copy OK

Track 7

Filename D:\temp\07 - You Found Me.wav

Peak level 99.3 %
Track quality 100.0 %
Test CRC 16795FF7
Copy CRC 16795FF7
Track not present in AccurateRip database
Copy OK

Track 8

Filename D:\temp\08 - Sober.wav

Peak level 100.0 %
Track quality 100.0 %
Test CRC 7FC111FA
Copy CRC 7FC111FA
Track not present in AccurateRip database
Copy OK

Track 9

Filename D:\temp\09 - My Life Would Suck Without You.wav

Peak level 99.9 %
Track quality 100.0 %
Test CRC 8F28FB19
Copy CRC 8F28FB19
Track not present in AccurateRip database
Copy OK

Track 10

Filename D:\temp\10 - Hot N Cold.wav

Peak level 88.8 %
Track quality 100.0 %
Test CRC 492A25AD
Copy CRC 492A25AD
Track not present in AccurateRip database
Copy OK

Track 11

Filename D:\temp\11 - Halo.wav

Peak level 99.8 %
Track quality 100.0 %
Test CRC 80E483A3
Copy CRC 80E483A3
Track not present in AccurateRip database
Copy OK

Track 12

Filename D:\temp\12 - Hometown Glory.wav

Peak level 97.7 %
Track quality 100.0 %
Test CRC 1298B43F
Copy CRC 1298B43F
Track not present in AccurateRip database
Copy OK

Track 13

Filename D:\temp\13 - Chicken Fried.wav

Peak level 98.8 %
Track quality 100.0 %
Test CRC 9E509705
Copy CRC 9E509705
Track not present in AccurateRip database
Copy OK

Track 14

Filename D:\temp\14 - It Happens.wav

Peak level 100.0 %
Track quality 100.0 %
Test CRC CD62F808
Copy CRC CD62F808
Track not present in AccurateRip database
Copy OK

Track 15

Filename D:\temp\15 - I Run To You.wav

Peak level 94.3 %
Track quality 100.0 %
Test CRC ACF3FACC
Copy CRC ACF3FACC
Track not present in AccurateRip database
Copy OK

Track 16

Filename D:\temp\16 - Here Comes Goodbye.wav

Peak level 97.7 %
Track quality 100.0 %
Test CRC 5726F2AE
Copy CRC 5726F2AE
Track not present in AccurateRip database
Copy OK

Track 17

Filename D:\temp\17 - 21 Guns.wav

Peak level 97.7 %
Track quality 100.0 %
Test CRC 04911F1D
Copy CRC 04911F1D
Track not present in AccurateRip database
Copy OK

Track 18

Filename D:\temp\18 - Life In Technicolor.wav

Peak level 98.8 %
Track quality 100.0 %
Test CRC 2FA37543
Copy CRC 2FA37543
Track not present in AccurateRip database
Copy OK

Track 19

Filename D:\temp\19 - I'll Go Crazy If I Don't Go Crazy Tonight.wav

Peak level 98.8 %
Track quality 100.0 %
Test CRC A59AA776
Copy CRC A59AA776
Track not present in AccurateRip database
Copy OK

Track 20

Filename D:\temp\20 - Can't Find My Way Home.wav

Peak level 98.8 %
Track quality 100.0 %
Test CRC 33D2A815
Copy CRC 33D2A815
Track not present in AccurateRip database
Copy OK


None of the tracks are present in the AccurateRip database

No errors occurred

End of status report

File Format: Wv
[Devi essere iscritto e connesso per vedere questa immagine] [Devi essere iscritto e connesso per vedere questo link]
avatar
*FARFIX*
Utente Medio
Utente Medio

Messaggi : 238
Reputazione Utente : 11
Data d'iscrizione : 15.05.10

Vedi il profilo dell'utente

Tornare in alto Andare in basso

Vedere l'argomento precedente Vedere l'argomento seguente Tornare in alto

- Argomenti simili

 
Permessi di questa sezione del forum:
Non puoi rispondere agli argomenti in questo forum